<?xml version="1.0" standalone="no"?>
<!DOCTYPE svg PUBLIC "-//W3C//DTD SVG 1.1//EN" "http://www.w3.org/Graphics/SVG/1.1/DTD/svg11.dtd">
<svg xmlns="http://www.w3.org/2000/svg">
<defs >
<font id="Mulish" horiz-adv-x="581" ><font-face
    font-family="Mulish ExtraLight Medium"
    units-per-em="1000"
    panose-1="0 0 0 0 0 0 0 0 0 0"
    ascent="1005"
    descent="-250"
    alphabetic="0" />
<glyph unicode=" " horiz-adv-x="264" />
<glyph unicode="!" horiz-adv-x="233" d="M88 190L60 705H173L144 190H88ZM61 0V111H172V0H61Z" />
<glyph unicode="&quot;" horiz-adv-x="405" d="M83 425L60 705H167L144 425H83ZM261 425L238 705H345L322 425H261Z" />
<glyph unicode="#" horiz-adv-x="600" d="M84 0L120 180H31V243H132L178 470H52V534H191L226 705H294L260 534H411L446 705H515L480 534H569V470H467L421 243H548V180H409L373 0H303L340 180H189L154 0H84ZM201 243H352L398 470H247L201 243Z" />
<glyph unicode="$" horiz-adv-x="600" d="M272 -115V13L291 -5Q219 -4 155 16T43 78L75 152Q123 114 176 95T301 75Q384 75 424 107T464 189Q464 230 435 254T339 293L237 315Q146 335 102 381T58 502Q58 560 86 606T166 679T286 709L272 695V820H348V695L332
709Q387 707 442 686T535 624L504 553Q465 593 416 611T307 630Q234 630 191 596T147 505Q147 461 174 435T263 395L365 374Q462 354 508 311T555 194Q555 137 527 94T448 26T331 -4L348 14V-115H272Z" />
<glyph unicode="%" horiz-adv-x="940" d="M301 0H221L639 705H720L301 0ZM224 283Q142 283 96 340T49 499Q49 601 96 657T224 714Q307 714 353 657T400 499Q400 398 354 341T224 283ZM224 345Q270 345 296 383T322 499Q322 576 296 613T224 651Q179 651 153 614T127
499Q127 420 153 383T224 345ZM716 -9Q634 -9 588 48T541 207Q541 309 588 365T716 422Q798 422 845 365T892 207Q892 106 845 49T716 -9ZM716 54Q762 54 788 91T814 207Q814 285 788 322T716 359Q671 359 645 322T619 207Q619 129 645 92T716 54Z" />
<glyph unicode="&amp;" horiz-adv-x="674" d="M653 -9Q607 11 567 40T497 99H519Q475 48 414 20T282 -9Q209 -9 156 13T75 76T47 172Q47 240 87 288T200 383L233 403L220 387Q174 435 153 474T131 557Q131 604 153 639T217 694T313 714Q384 714 429 675T475 569Q475
532 461 501T413 439T322 374L324 394L514 190H494Q520 232 534 290T551 415H630Q627 332 606 260T548 134L547 159Q573 131 609 104T688 57L653 -9ZM286 64Q343 64 388 87T467 154L465 129L249 356H285L255 337Q215 311 189 287T151 237T138 177Q138 124 175 94T286
64ZM313 648Q269 648 243 623T216 557Q216 536 223 518T248 478T295 423L271 420Q339 461 369 493T400 564Q400 603 377 625T313 648Z" />
<glyph unicode="&apos;" horiz-adv-x="226" d="M83 425L60 705H167L144 425H83Z" />
<glyph unicode="(" horiz-adv-x="327" d="M226 -180Q183 -106 156 -35T116 110T103 263Q103 343 115 416T155 560T226 705H300Q249 592 223 483T197 263Q197 153 223 43T300 -180H226Z" />
<glyph unicode=")" horiz-adv-x="327" d="M101 -180H26Q77 -67 103 43T130 263Q130 372 104 482T26 705H101Q144 631 171 560T211 415T224 263Q224 183 212 110T172 -34T101 -180Z" />
<glyph unicode="*" horiz-adv-x="455" d="M139 360L85 401L181 524L30 569L52 634L198 579L193 736H262L256 579L405 634L425 569L274 525L371 401L315 360L228 492L139 360Z" />
<glyph unicode="+" horiz-adv-x="600" d="M265 38V253H53V321H265V531H335V321H547V253H335V38H265Z" />
<glyph unicode="," horiz-adv-x="233" d="M107 -119L66 -87Q94 -58 104 -33T114 20L134 0H61V111H172V34Q172 -9 158 -45T107 -119Z" />
<glyph unicode="-" horiz-adv-x="431" d="M71 237V311H360V237H71Z" />
<glyph unicode="." horiz-adv-x="233" d="M61 0V111H172V0H61Z" />
<glyph unicode="/" horiz-adv-x="293" d="M54 -56H-23L238 749H316L54 -56Z" />
<glyph unicode="0" horiz-adv-x="600" d="M300 -9Q179 -9 114 84T49 353Q49 531 114 622T300 714Q422 714 486 623T551 354Q551 178 486 85T300 -9ZM300 70Q380 70 419 139T459 354Q459 500 420 567T300 635Q221 635 181 568T141 354Q141 208 181 139T300 70Z" />
<glyph unicode="1" horiz-adv-x="600" d="M124 0V79H289V626H336L139 504V595L315 705H382V79H537V0H124Z" />
<glyph unicode="2" horiz-adv-x="600" d="M85 0V69L331 327Q379 376 402 421T426 514Q426 573 390 603T283 634Q229 634 182 615T91 555L58 626Q99 666 161 690T293 714Q401 714 460 665T519 523Q519 456 487 396T391 271L176 53V79H548V0H85Z" />
<glyph unicode="3" horiz-adv-x="600" d="M295 -9Q223 -9 158 13T48 75L81 147Q130 107 182 89T292 71Q369 71 409 103T449 197Q449 257 409 288T290 319H182V396H283Q349 396 389 430T429 523Q429 577 393 605T289 634Q176 634 93 555L60 626Q102 668 164 691T295
714Q400 714 460 666T520 532Q520 467 484 421T384 359V370Q458 357 499 310T540 191Q540 98 475 45T295 -9Z" />
<glyph unicode="4" horiz-adv-x="600" d="M379 0V149H48V216L394 705H470V223H576V149H470V0H379ZM379 223V595H402L123 201V223H379Z" />
<glyph unicode="5" horiz-adv-x="600" d="M312 -9Q266 -9 222 1T138 29T70 75L103 147Q152 108 203 90T310 71Q384 71 426 110T468 214Q468 281 428 322T317 364Q268 364 229 345T159 283H93V705H516V626H183V359H159Q186 399 232 421T337 443Q405 443 454 415T531
337T559 219Q559 152 529 101T444 20T312 -9Z" />
<glyph unicode="6" horiz-adv-x="600" d="M323 -9Q194 -9 124 82T54 336Q54 458 89 542T191 670T349 714Q405 714 461 692T554 631L520 559Q483 597 439 615T348 634Q249 634 197 564T144 354V265H134Q141 321 168 361T239 423T338 445Q401 445 450 416T527 337T555
221Q555 155 525 103T443 21T323 -9ZM318 68Q362 68 395 87T447 140T466 218Q466 262 448 296T396 349T318 368Q274 368 241 349T188 296T169 218Q169 174 188 140T240 87T318 68Z" />
<glyph unicode="7" horiz-adv-x="600" d="M106 0L453 663V625H63V705H538V636L209 0H106Z" />
<glyph unicode="8" horiz-adv-x="600" d="M300 -9Q178 -9 111 43T44 188Q44 261 89 309T208 368V352Q141 366 102 413T62 526Q62 614 125 664T300 714Q412 714 475 664T539 526Q539 460 502 412T398 352V368Q471 358 513 310T556 188Q556 95 490 43T300 -9ZM300
66Q385 66 426 98T468 193Q468 257 427 288T300 319Q216 319 174 288T132 193Q132 130 174 98T300 66ZM300 395Q373 395 411 427T450 518Q450 575 412 607T300 639Q228 639 189 607T150 518Q150 460 189 428T300 395Z" />
<glyph unicode="9" horiz-adv-x="600" d="M252 -9Q196 -9 140 14T47 75L81 146Q118 109 162 90T253 71Q351 71 404 141T457 351V440H467Q461 385 433 345T361 282T263 260Q200 260 151 289T74 368T46 484Q46 551 75 603T157 684T277 714Q407 714 477 624T547 369Q547
248 512 164T410 35T252 -9ZM283 337Q327 337 360 356T413 409T432 487Q432 532 413 565T361 618T283 638Q239 638 206 619T154 566T135 487Q135 443 153 409T205 356T283 337Z" />
<glyph unicode=":" horiz-adv-x="233" d="M61 393V503H172V393H61ZM61 0V111H172V0H61Z" />
<glyph unicode=";" horiz-adv-x="233" d="M107 -119L66 -87Q94 -58 104 -33T114 20L140 0H61V111H172V34Q172 -9 158 -45T107 -119ZM61 393V503H172V393H61Z" />
<glyph unicode="&lt;" horiz-adv-x="600" d="M546 34L53 252V323L546 540V465L87 264V310L546 109V34Z" />
<glyph unicode="=" horiz-adv-x="600" d="M53 353V421H547V353H53ZM53 154V221H547V154H53Z" />
<glyph unicode="&gt;" horiz-adv-x="600" d="M54 34V109L513 310V264L54 465V540L547 323V252L54 34Z" />
<glyph unicode="?" horiz-adv-x="451" d="M172 190V222Q172 271 191 314T259 412Q297 453 312 484T327 548Q327 589 297 612T215 635Q176 635 140 625T70 595V678Q103 695 144 704T225 714Q283 714 327 696T395 644T420 557Q420 525 410 495T379 436T325 374Q276
325 257 289T232 215L229 190H172ZM145 0V111H256V0H145Z" />
<glyph unicode="@" horiz-adv-x="968" d="M495 -164Q397 -164 317 -134T180 -46T92 92T60 271Q60 370 92 451T185 592T327 682T510 714Q629 714 719 668T859 539T909 343Q909 257 884 193T815 94T711 59Q651 59 619 93T591 187L612 185Q586 123 539 91T438 59Q359
59 316 108T272 242Q272 316 300 373T379 463T492 496Q548 496 583 469T630 393H617L635 487H707L661 232Q659 218 658 206T656 183Q656 150 671 134T716 118Q754 118 783 146T829 224T846 343Q846 438 804 507T687 615T509 653Q395 653 310 606T177 472T129 271Q129
155 174 71T301 -57T495 -102Q577 -102 643 -78T755 -8L789 -61Q740 -110 664 -137T495 -164ZM449 122Q494 122 529 147T584 219T604 323Q604 379 579 406T502 433Q458 433 423 409T367 342T347 242Q347 184 374 153T449 122Z" />
<glyph unicode="A" horiz-adv-x="738" d="M14 0L326 705H407L724 0H628L541 200L581 176H152L196 200L109 0H14ZM365 601L209 231L185 252H548L529 231L369 601H365Z" />
<glyph unicode="B" horiz-adv-x="683" d="M86 0V705H373Q487 705 548 657T609 522Q609 456 570 412T462 353V368Q540 359 583 314T627 195Q627 101 564 51T386 0H86ZM176 74H377Q451 74 493 102T536 197Q536 264 494 292T377 320H176V74ZM176 394H360Q439 394
478 424T517 513Q517 571 478 601T360 632H176V394Z" />
<glyph unicode="C" horiz-adv-x="685" d="M397 -9Q291 -9 216 35T100 160T60 353Q60 464 100 545T215 670T397 714Q473 714 532 692T635 626L601 551Q553 593 507 611T399 630Q282 630 220 558T158 353Q158 220 220 148T399 75Q460 75 506 93T601 154L635 80Q591
37 532 14T397 -9Z" />
<glyph unicode="D" horiz-adv-x="750" d="M86 0V705H325Q443 705 524 664T648 545T690 353Q690 240 648 161T525 41T325 0H86ZM179 79H318Q459 79 527 147T595 353Q595 491 527 558T318 626H179V79Z" />
<glyph unicode="E" horiz-adv-x="590" d="M86 0V705H542V629H176V396H519V320H176V76H542V0H86Z" />
<glyph unicode="F" horiz-adv-x="565" d="M86 0V705H532V629H179V393H509V317H179V0H86Z" />
<glyph unicode="G" horiz-adv-x="733" d="M413 -9Q297 -9 218 34T100 159T60 352Q60 464 102 545T222 670T411 714Q488 714 545 692T647 628L612 554Q580 582 550 599T488 623T411 631Q288 631 223 558T158 351Q158 215 221 144T417 73Q464 73 509 82T595 108L576
61V300H399V372H656V42Q611 19 545 5T413 -9Z" />
<glyph unicode="H" horiz-adv-x="768" d="M86 0V705H179V397H589V705H683V0H589V318H179V0H86Z" />
<glyph unicode="I" horiz-adv-x="264" d="M86 0V705H179V0H86Z" />
<glyph unicode="J" horiz-adv-x="337" d="M82 -187Q65 -187 44 -185T1 -178V-102Q20 -106 37 -108T66 -110Q112 -110 134 -82T157 7V705H251V6Q251 -57 233 -100T178 -165T82 -187Z" />
<glyph unicode="K" horiz-adv-x="641" d="M86 0V705H179V386H181L512 705H629L245 340L246 385L656 0H535L181 331H179V0H86Z" />
<glyph unicode="L" horiz-adv-x="549" d="M86 0V705H179V80H530V0H86Z" />
<glyph unicode="M" horiz-adv-x="861" d="M86 0V705H168L446 79H416L694 705H775V0H690V581H721L460 0H401L140 581H171V0H86Z" />
<glyph unicode="N" horiz-adv-x="748" d="M86 0V705H158L600 121H576V705H663V0H592L150 584H173V0H86Z" />
<glyph unicode="O" horiz-adv-x="776" d="M60 353Q60 464 99 545T211 670T387 714Q488 714 561 670T675 545T715 354Q715 243 675 162T562 36T387 -9Q285 -9 212 35T100 161T60 353ZM158 353Q158 221 216 147T387 73Q496 73 556 146T617 353Q617 486 557 559T387
632Q274 632 216 559T158 353Z" />
<glyph unicode="P" horiz-adv-x="655" d="M86 0V705H378Q491 705 551 651T611 502Q611 407 551 353T378 298H179V0H86ZM179 374H369Q443 374 481 407T519 502Q519 563 481 596T369 629H179V374Z" />
<glyph unicode="Q" horiz-adv-x="776" d="M577 -192Q548 -173 517 -143T458 -76T410 -1L489 29Q515 -23 556 -65T641 -138L577 -192ZM60 353Q60 464 99 545T211 670T387 714Q488 714 561 670T675 545T715 354Q715 243 675 162T562 36T387 -9Q285 -9 212 35T100
161T60 353ZM158 353Q158 221 216 147T387 73Q496 73 556 146T617 353Q617 486 557 559T387 632Q274 632 216 559T158 353Z" />
<glyph unicode="R" horiz-adv-x="695" d="M86 0V705H378Q491 705 552 652T614 504Q614 441 586 397T508 330T390 307L407 321H431Q472 321 504 301T557 234L657 0H554L457 232Q440 275 408 288T326 301H179V0H86ZM179 373H364Q441 373 481 406T522 502Q522 564
482 596T364 629H179V373Z" />
<glyph unicode="S" horiz-adv-x="628" d="M319 -9Q234 -9 166 13T48 75L80 149Q115 123 151 106T228 80T319 71Q406 71 447 102T489 186Q489 231 460 255T359 293L252 315Q155 335 108 380T60 504Q60 567 93 614T186 688T326 714Q400 714 463 692T569 627L537
556Q492 597 441 615T324 634Q245 634 199 600T153 508Q153 462 182 436T278 395L385 374Q487 354 534 311T582 192Q582 132 550 87T459 16T319 -9Z" />
<glyph unicode="T" horiz-adv-x="607" d="M255 0V626H11V705H594V626H349V0H255Z" />
<glyph unicode="U" horiz-adv-x="733" d="M367 -9Q222 -9 152 64T81 281V705H175V284Q175 179 221 126T367 73Q463 73 511 126T560 284V705H652V281Q652 138 580 65T367 -9Z" />
<glyph unicode="V" horiz-adv-x="703" d="M309 0L0 705H101L370 77H336L606 705H703L392 0H309Z" />
<glyph unicode="W" horiz-adv-x="1114" d="M279 0L32 705H130L339 83H303L525 705H598L806 83H774L990 705H1082L833 0H752L549 595H570L359 0H279Z" />
<glyph unicode="X" horiz-adv-x="657" d="M5 0L289 378V342L17 705H127L344 409H315L529 705H640L368 342V378L652 0H541L311 314H346L115 0H5Z" />
<glyph unicode="Y" horiz-adv-x="612" d="M259 0V330L279 269L-15 705H93L319 361H296L522 705H627L333 269L352 330V0H259Z" />
<glyph unicode="Z" horiz-adv-x="599" d="M44 0V69L463 659V626H44V705H552V637L132 46V79H564V0H44Z" />
<glyph unicode="[" horiz-adv-x="325" d="M105 -180V705H316V634H195V-109H316V-180H105Z" />
<glyph unicode="\" horiz-adv-x="293" d="M238 -56L-23 749H54L316 -56H238Z" />
<glyph unicode="]" horiz-adv-x="325" d="M10 -180V-109H130V634H10V705H220V-180H10Z" />
<glyph unicode="^" horiz-adv-x="600" d="M45 141L264 628H335L555 141H480L277 594H322L119 141H45Z" />
<glyph unicode="_" horiz-adv-x="505" d="M9 -58V0H496V-58H9Z" />
<glyph unicode="`" horiz-adv-x="500" d="M218 552L84 754H179L282 552H218Z" />
<glyph unicode="a" horiz-adv-x="605" d="M268 -9Q202 -9 152 22T74 112T46 252Q46 333 74 391T152 481T268 512Q335 512 384 479T450 387H438L449 503H537Q534 473 532 443T529 384V0H438V115H449Q433 58 384 25T268 -9ZM289 63Q357 63 398 111T439 252Q439 345
398 392T289 439Q221 439 180 392T138 252Q138 159 179 111T289 63Z" />
<glyph unicode="b" horiz-adv-x="605" d="M337 -9Q270 -9 221 24T156 117H167V0H76V736H167V388H156Q173 446 221 479T337 512Q404 512 454 481T531 391T559 251Q559 170 532 112T454 22T337 -9ZM316 63Q384 63 425 110T467 251Q467 344 426 391T316 439Q247 439
207 392T166 252Q166 159 206 111T316 63Z" />
<glyph unicode="c" horiz-adv-x="497" d="M292 -9Q217 -9 162 22T77 113T46 255Q46 336 77 393T163 481T292 512Q341 512 387 496T462 448L431 384Q402 412 367 425T298 439Q224 439 182 392T140 254Q140 163 182 114T298 65Q331 65 366 78T431 119L462 56Q432
24 386 8T292 -9Z" />
<glyph unicode="d" horiz-adv-x="605" d="M268 -9Q202 -9 152 22T74 112T46 252Q46 333 74 391T152 481T268 512Q334 512 383 479T450 388H438V736H529V0H439V117H450Q434 58 385 25T268 -9ZM289 63Q357 63 398 111T440 252Q440 345 399 392T289 439Q221 439 180
392T138 252Q138 159 179 111T289 63Z" />
<glyph unicode="e" horiz-adv-x="545" d="M305 -9Q185 -9 116 60T46 250Q46 330 76 388T161 479T287 512Q356 512 404 483T477 399T502 271V241H117V295H440L423 282Q423 360 389 403T287 446Q214 446 174 396T134 258V249Q134 157 179 110T306 63Q351 63 390
76T465 119L495 56Q461 25 411 8T305 -9Z" />
<glyph unicode="f" horiz-adv-x="345" d="M104 0V433H6V503H129L104 480V561Q104 649 148 694T276 740Q296 740 318 737T356 727V653Q344 658 326 661T291 664Q261 664 239 652T206 617T195 555V484L181 503H334V433H195V0H104Z" />
<glyph unicode="g" horiz-adv-x="608" d="M300 -224Q234 -224 179 -208T80 -159L104 -92Q135 -113 165 -126T227 -145T295 -151Q369 -151 406 -113T443 -5V136H453Q437 79 388 46T271 12Q203 12 153 42T74 129T46 262Q46 339 74 395T152 481T271 512Q338 512 387
479T452 388L443 397L452 503H540Q537 473 535 443T532 384V6Q532 -106 474 -165T300 -224ZM291 84Q360 84 401 131T442 262Q442 347 401 393T291 439Q221 439 180 393T138 262Q138 178 179 131T291 84Z" />
<glyph unicode="h" horiz-adv-x="589" d="M76 0V736H167V394H154Q176 452 225 482T338 512Q429 512 472 463T516 315V0H425V310Q425 377 399 407T314 438Q248 438 208 397T167 288V0H76Z" />
<glyph unicode="i" horiz-adv-x="243" d="M76 0V503H167V0H76ZM68 613V711H176V613H68Z" />
<glyph unicode="j" horiz-adv-x="243" d="M14 -220Q-1 -220 -22 -217T-58 -208V-133Q-46 -137 -30 -140T-1 -144Q40 -144 60 -119T81 -35V503H172V-43Q172 -130 133 -175T14 -220ZM72 613V711H180V613H72Z" />
<glyph unicode="k" horiz-adv-x="523" d="M76 0V736H167V281H169L396 503H509L239 239L240 282L533 0H417L169 234H167V0H76Z" />
<glyph unicode="l" horiz-adv-x="243" d="M76 0V736H167V0H76Z" />
<glyph unicode="m" horiz-adv-x="883" d="M76 0V384Q76 413 74 443T68 503H156L166 395H154Q174 451 218 481T323 512Q385 512 425 483T479 390H464Q483 446 531 479T643 512Q726 512 768 464T810 313V0H719V308Q719 377 695 407T619 438Q558 438 523 397T488
284V0H397V308Q397 377 374 407T297 438Q236 438 202 397T167 284V0H76Z" />
<glyph unicode="n" horiz-adv-x="589" d="M76 0V384Q76 413 74 443T68 503H156L166 395H154Q177 452 225 482T337 512Q426 512 471 464T516 313V0H425V308Q425 377 398 407T314 438Q246 438 207 397T167 286V0H76Z" />
<glyph unicode="o" horiz-adv-x="576" d="M288 -9Q214 -9 160 22T76 112T46 252Q46 332 76 390T160 480T288 512Q362 512 416 481T500 391T530 252Q530 171 501 113T417 23T288 -9ZM288 63Q356 63 397 111T438 252Q438 345 397 392T288 439Q219 439 179 392T138
252Q138 159 178 111T288 63Z" />
<glyph unicode="p" horiz-adv-x="605" d="M76 -216V384Q76 413 74 443T68 503H156L167 387H156Q171 445 220 478T337 512Q404 512 454 481T531 392T559 252Q559 171 532 112T454 22T337 -9Q270 -9 222 24T156 115H167V-216H76ZM316 63Q385 63 426 111T467 252Q467
345 426 392T316 439Q247 439 207 392T166 252Q166 159 206 111T316 63Z" />
<glyph unicode="q" horiz-adv-x="605" d="M438 -216V115H449Q433 58 384 25T268 -9Q202 -9 152 22T74 112T46 252Q46 333 74 391T152 481T268 512Q335 512 384 479T450 387H438L449 503H537Q534 473 532 443T529 384V-216H438ZM289 63Q357 63 398 111T439 252Q439
345 398 392T289 439Q221 439 180 392T138 252Q138 159 179 111T289 63Z" />
<glyph unicode="r" horiz-adv-x="370" d="M75 0V380Q75 410 74 441T68 503H156L167 377L152 376Q162 422 186 452T245 497T317 512Q333 512 344 511T366 506L364 425Q349 431 337 432T306 434Q262 434 231 414T183 361T166 290V0H75Z" />
<glyph unicode="s" horiz-adv-x="497" d="M246 -9Q185 -9 133 7T46 53L75 116Q112 88 156 74T248 59Q305 59 334 80T364 136Q364 164 345 181T285 206L190 225Q126 240 94 273T61 360Q61 404 85 438T153 492T258 512Q313 512 360 496T439 449L409 388Q378 415
340 429T261 444Q203 444 175 422T147 363Q147 336 164 319T219 292L314 273Q381 259 415 227T449 142Q449 95 424 61T353 9T246 -9Z" />
<glyph unicode="t" horiz-adv-x="356" d="M264 -9Q185 -9 145 34T104 166V433H6V503H104V638L195 663V503H337V433H195V174Q195 116 215 92T275 67Q295 67 309 70T336 79V4Q321 -2 302 -5T264 -9Z" />
<glyph unicode="u" horiz-adv-x="582" d="M255 -9Q164 -9 119 40T73 191V503H164V193Q164 127 191 96T275 65Q337 65 375 106T414 217V503H505V0H417V111H430Q409 54 363 23T255 -9Z" />
<glyph unicode="v" horiz-adv-x="534" d="M224 0L9 503H107L282 71H254L432 503H525L309 0H224Z" />
<glyph unicode="w" horiz-adv-x="872" d="M212 0L24 503H119L271 72H245L401 503H475L630 72H605L758 503H849L660 0H574L414 438H458L299 0H212Z" />
<glyph unicode="x" horiz-adv-x="538" d="M6 0L234 282V237L19 503H128L285 302H252L409 503H517L305 239V280L530 0H420L252 215H285L115 0H6Z" />
<glyph unicode="y" horiz-adv-x="534" d="M59 -227L38 -153Q85 -142 116 -128T168 -90T205 -32L230 28L228 -10L9 503H107L282 72H256L431 503H525L294 -39Q273 -88 249 -121T196 -175T133 -208T59 -227Z" />
<glyph unicode="z" horiz-adv-x="520" d="M49 0V61L383 456V433H49V503H467V442L131 45L130 70H478V0H49Z" />
<glyph unicode="{" horiz-adv-x="363" d="M253 -180Q202 -180 175 -153T148 -73V146Q148 187 132 205T76 226L45 228V297L76 299Q115 302 131 320T148 379V598Q148 650 175 677T253 705H355V634H282Q259 634 249 623T238 589V369Q238 339 225 314T191 275T143
260V264Q169 264 190 250T225 212T238 156V-64Q238 -86 248 -97T282 -109H355V-180H253Z" />
<glyph unicode="|" horiz-adv-x="268" d="M89 -186V711H180V-186H89Z" />
<glyph unicode="}" horiz-adv-x="363" d="M9 -180V-109H81Q104 -109 115 -98T126 -64V156Q126 187 138 211T172 250T221 265V261Q194 261 173 275T139 314T126 369V589Q126 612 115 623T81 634H9V705H110Q162 705 189 678T216 598V379Q216 338 232 320T287 299L319
297V228L287 226Q248 224 232 206T216 146V-73Q216 -125 189 -152T110 -180H9Z" />
<glyph unicode="~" horiz-adv-x="600" d="M416 215Q390 215 362 224T290 256Q250 278 228 286T190 294Q135 294 107 229L53 259Q73 308 107 333T184 359Q210 359 238 351T308 320Q347 300 369 291T410 281Q465 281 493 346L547 315Q527 266 494 241T416 215Z" />
<glyph unicode="&#xa0;" horiz-adv-x="264" />
<glyph unicode="&#xa1;" horiz-adv-x="233" d="M60 -180L88 314H144L173 -180H60ZM61 393V503H172V393H61Z" />
<glyph unicode="&#xa2;" horiz-adv-x="600" d="M278 -115V18L297 -5Q234 2 188 35T115 122T89 244Q89 310 115 362T187 449T296 491L278 463V607H354V467L335 493Q383 493 430 477T506 430L477 366Q448 392 412 406T338 420Q266 420 224 372T182 245Q182 165 223
117T337 68Q375 68 411 82T477 122L506 58Q476 29 430 12T333 -8L354 14V-115H278Z" />
<glyph unicode="&#xa3;" horiz-adv-x="600" d="M45 0V64Q91 83 117 109T144 176V324H45V384H144V507Q144 573 169 619T244 689T369 714Q429 714 481 694T572 637L536 567Q502 603 461 620T369 637Q303 637 270 605T237 510V384H418V324H238V202Q238 149 216 118T156
73V78H564V0H45Z" />
<glyph unicode="&#xa4;" horiz-adv-x="600" d="M79 -27L34 19L108 94Q85 126 72 164T59 245Q59 288 71 326T108 396L34 472L79 517L153 441Q183 466 221 479T300 493Q341 493 378 480T446 443L518 518L564 471L491 397Q515 365 527 327T540 245Q540 202 527 164T490
93L564 19L519 -26L446 48Q416 24 379 11T300 -3Q259 -3 221 11T152 48L79 -27ZM299 74Q344 74 380 97T438 159T460 245Q460 293 439 331T381 393T299 416Q255 416 219 393T161 332T139 245Q139 198 160 159T218 97T299 74Z" />
<glyph unicode="&#xa5;" horiz-adv-x="600" d="M254 0V175H71V234H254V329H71V387H228V376L-7 705H96L312 397H289L505 705H607L374 376V387H529V329H346V234H529V175H346V0H254Z" />
<glyph unicode="&#xa6;" horiz-adv-x="268" d="M89 372V711H180V372H89ZM89 -186V154H180V-186H89Z" />
<glyph unicode="&#xa7;" horiz-adv-x="549" d="M251 -189Q185 -189 131 -172T41 -126L72 -62Q93 -80 122 -93T186 -114T253 -121Q314 -121 350 -94T386 -14Q386 21 366 47T296 96L179 149Q125 175 93 200T48 255T34 322Q34 365 56 403T115 468L107 442Q93 457
85 479T76 533Q76 590 104 630T183 692T297 714Q359 714 410 698T495 652L466 590Q434 616 388 630T295 645Q237 645 201 618T165 539Q165 503 185 478T256 428L372 376Q427 351 458 325T503 270T517 203Q517 160 496 122T437 57L445 83Q458 68 466 45T475 -9Q475
-65 447 -105T369 -167T251 -189ZM118 336Q118 301 140 274T223 218L323 173Q359 156 383 139T422 104L396 102Q435 138 435 188Q435 224 412 251T329 307L229 352Q193 369 169 386T130 421L156 422Q137 405 128 383T118 336Z" />
<glyph unicode="&#xa8;" horiz-adv-x="500" d="M292 606V699H385V606H292ZM115 606V699H208V606H115Z" />
<glyph unicode="&#xa9;" horiz-adv-x="815" d="M408 -9Q332 -9 266 18T150 95T74 210T46 353Q46 430 73 496T150 610T265 686T408 714Q485 714 551 687T665 611T741 496T769 353Q769 277 742 211T666 95T551 19T408 -9ZM422 137Q325 137 269 196T212 355Q212 454
268 511T422 568Q462 568 501 555T565 516L539 459Q515 482 485 492T427 503Q364 503 328 464T292 354Q292 284 328 243T427 202Q455 202 485 213T539 247L565 189Q540 166 501 152T422 137ZM408 37Q475 37 532 61T631 128T697 228T721 353Q721 420 698 477T632
577T532 644T408 668Q341 668 284 644T184 578T118 478T94 353Q94 286 117 229T183 128T283 61T408 37Z" />
<glyph unicode="&#xaa;" horiz-adv-x="330" d="M133 410Q85 410 54 436T23 502Q23 547 64 567T180 587H238V550H182Q133 550 110 539T86 503Q86 483 100 469T148 455Q184 455 207 479T230 545V602Q230 635 213 650T159 665Q133 665 105 659T53 637L37 683Q61 699
95 706T162 714Q291 714 291 600V416H232V470H230Q214 439 191 425T133 410Z" />
<glyph unicode="&#xab;" horiz-adv-x="457" d="M155 87L26 268L155 449H233L114 268L233 87H155ZM343 87L214 268L343 449H421L302 268L421 87H343Z" />
<glyph unicode="&#xac;" horiz-adv-x="600" d="M476 147V355H53V423H547V147H476Z" />
<glyph unicode="&#xad;" horiz-adv-x="431" d="M71 237V311H360V237H71Z" />
<glyph unicode="&#xae;" horiz-adv-x="815" d="M408 -9Q332 -9 266 18T150 95T74 210T46 353Q46 430 73 496T150 610T265 686T408 714Q485 714 551 687T665 611T741 496T769 353Q769 277 742 211T666 95T551 19T408 -9ZM408 37Q475 37 532 61T631 128T697 228T721
353Q721 420 698 477T632 577T532 644T408 668Q341 668 284 644T184 578T118 478T94 353Q94 286 117 229T183 128T283 61T408 37ZM261 142V564H436Q504 564 540 531T577 441Q577 384 541 354T438 323L452 333Q483 333 504 319T537 267L582 142H507L461 271Q452
295 435 303T392 312H321L335 322V142H261ZM334 369H426Q467 369 487 386T507 438Q507 473 487 490T426 507H334V369Z" />
<glyph unicode="&#xaf;" horiz-adv-x="500" d="M99 623V682H401V623H99Z" />
<glyph unicode="&#xb0;" horiz-adv-x="373" d="M187 415Q144 415 110 435T56 489T36 565Q36 607 56 640T110 694T187 714Q229 714 263 695T316 642T336 565Q336 523 317 489T263 435T187 415ZM187 474Q226 474 250 499T274 565Q274 604 250 630T187 656Q148 656
124 630T99 565Q99 525 123 500T187 474Z" />
<glyph unicode="&#xb1;" horiz-adv-x="600" d="M265 130V296H53V364H265V530H335V364H547V296H335V130H265ZM53 0V68H547V0H53Z" />
<glyph unicode="&#xb2;" horiz-adv-x="380" d="M51 282V337L191 480Q219 509 232 533T245 582Q245 645 173 645Q145 645 115 634T60 602L38 659Q65 682 103 695T187 709Q252 709 289 678T326 591Q326 557 309 524T256 455L137 337V347H344V282H51Z" />
<glyph unicode="&#xb3;" horiz-adv-x="380" d="M187 278Q139 278 99 290T31 326L52 381Q77 361 110 351T181 340Q218 340 241 356T265 405Q265 437 242 451T179 466H99V525H168Q208 525 230 541T252 589Q252 617 232 632T176 648Q145 648 113 636T57 604L35 660Q62
683 101 696T187 709Q252 709 289 679T327 599Q327 558 302 531T240 495V504Q285 498 312 471T339 398Q339 341 296 310T187 278Z" />
<glyph unicode="&#xb4;" horiz-adv-x="500" d="M218 552L321 754H416L282 552H218Z" />
<glyph unicode="&#xb5;" horiz-adv-x="573" d="M71 -205V503H162V189Q162 126 188 97T270 67Q332 67 370 107T409 214V503H500V0H411V110H419Q403 53 363 22T269 -9Q227 -9 195 6T144 63H154L162 -205H71Z" />
<glyph unicode="&#xb6;" horiz-adv-x="607" d="M250 -180V304Q187 304 141 329T69 400T43 505Q43 564 68 609T141 679T252 705H521V-180H450V637H320V-180H250Z" />
<glyph unicode="&#xb7;" horiz-adv-x="236" d="M62 219V330H174V219H62Z" />
<glyph unicode="&#xb8;" horiz-adv-x="500" d="M253 -193Q226 -193 202 -188T160 -173L174 -126Q193 -135 209 -139T248 -143Q275 -143 290 -134T306 -107Q306 -81 268 -81Q257 -81 247 -82T222 -88L205 -72L219 20H274L261 -56L235 -48Q246 -45 258 -43T281 -41Q318
-41 342 -59T366 -110Q366 -147 335 -170T253 -193Z" />
<glyph unicode="&#xb9;" horiz-adv-x="380" d="M77 282V347H175V639H208L86 568V642L193 705H250V347H336V282H77Z" />
<glyph unicode="&#xba;" horiz-adv-x="345" d="M172 411Q129 411 96 429T43 482T23 563Q23 609 42 643T95 695T173 714Q216 714 249 696T302 643T322 563Q322 517 303 483T250 430T172 411ZM172 461Q212 461 235 487T258 563Q258 613 235 639T172 665Q133 665
110 639T87 563Q87 513 110 487T172 461Z" />
<glyph unicode="&#xbb;" horiz-adv-x="457" d="M114 87H36L155 268L36 449H115L243 268L114 87ZM302 87H224L343 268L224 449H303L431 268L302 87Z" />
<glyph unicode="&#xbc;" horiz-adv-x="900" d="M77 282V347H175V639H208L86 568V642L193 705H250V347H336V282H77ZM302 -9H221L649 714H729L302 -9ZM750 0V83H551V137L757 423H820V143H883V83H820V0H750ZM752 143V342H762L607 128V143H752Z" />
<glyph unicode="&#xbd;" horiz-adv-x="945" d="M77 282V347H175V639H208L86 568V642L193 705H250V347H336V282H77ZM302 -9H221L649 714H729L302 -9ZM616 0V55L756 198Q784 227 797 251T810 300Q810 363 738 363Q710 363 680 352T625 320L603 377Q630 400 668 413T752
427Q817 427 854 396T891 309Q891 275 874 242T821 173L702 55V65H909V0H616Z" />
<glyph unicode="&#xbe;" horiz-adv-x="900" d="M187 278Q139 278 99 290T31 326L52 381Q77 361 110 351T181 340Q218 340 241 356T265 405Q265 437 242 451T179 466H99V525H168Q208 525 230 541T252 589Q252 617 232 632T176 648Q145 648 113 636T57 604L35 660Q62
683 101 696T187 709Q252 709 289 679T327 599Q327 558 302 531T240 495V504Q285 498 312 471T339 398Q339 341 296 310T187 278ZM302 -9H221L649 714H729L302 -9ZM750 0V83H551V137L757 423H820V143H883V83H820V0H750ZM752 143V342H762L607 128V143H752Z" />
<glyph unicode="&#xbf;" horiz-adv-x="451" d="M226 -208Q169 -208 125 -189T56 -135T31 -49Q31 -16 40 12T70 69T126 133Q176 182 195 218T219 292L222 313H279V285Q279 236 260 193T193 95Q155 54 140 23T124 -41Q124 -83 154 -106T236 -129Q275 -129 311 -118T381
-88V-171Q348 -188 308 -198T226 -208ZM307 503V392H196V503H307Z" />
<glyph unicode="&#xc0;" horiz-adv-x="738" d="M14 0L326 705H407L724 0H628L541 200L581 176H152L196 200L109 0H14ZM365 601L209 231L185 252H548L529 231L369 601H365ZM333 765L183 937H283L401 765H333Z" />
<glyph unicode="&#xc1;" horiz-adv-x="738" d="M14 0L326 705H407L724 0H628L541 200L581 176H152L196 200L109 0H14ZM365 601L209 231L185 252H548L529 231L369 601H365ZM333 765L451 937H551L401 765H333Z" />
<glyph unicode="&#xc2;" horiz-adv-x="738" d="M14 0L326 705H407L724 0H628L541 200L581 176H152L196 200L109 0H14ZM365 601L209 231L185 252H548L529 231L369 601H365ZM203 765L325 937H409L531 765H465L367 880L269 765H203Z" />
<glyph unicode="&#xc3;" horiz-adv-x="738" d="M14 0L326 705H407L724 0H628L541 200L581 176H152L196 200L109 0H14ZM365 601L209 231L185 252H548L529 231L369 601H365ZM205 780L155 783Q161 849 194 884T278 920Q301 920 324 911T381 880Q411 862 428 855T459
847Q488 847 505 866T529 923L579 920Q573 855 540 819T457 783Q434 783 410 793T350 825Q322 844 306 850T275 857Q246 857 229 838T205 780Z" />
<glyph unicode="&#xc4;" horiz-adv-x="738" d="M14 0L326 705H407L724 0H628L541 200L581 176H152L196 200L109 0H14ZM365 601L209 231L185 252H548L529 231L369 601H365ZM409 802V895H502V802H409ZM232 802V895H325V802H232Z" />
<glyph unicode="&#xc5;" horiz-adv-x="738" d="M14 0L326 705H407L724 0H628L541 200L581 176H152L196 200L109 0H14ZM365 601L209 231L185 252H548L529 231L369 601H365ZM367 757Q334 757 307 773T263 816T247 875Q247 908 263 934T306 976T367 992Q401 992 428
977T471 935T487 875Q487 842 471 816T429 773T367 757ZM367 804Q398 804 417 824T437 875Q437 905 418 925T367 945Q337 945 317 925T297 875Q297 845 316 825T367 804Z" />
<glyph unicode="&#xc6;" horiz-adv-x="1008" d="M-6 0L427 705H960V629H566L588 652L613 371L595 396H939V320H601L616 330L641 52L629 76H960V0H559L542 196L568 176H187L218 201L96 0H-6ZM473 628L235 230L225 252H548L540 228L504 628H473Z" />
<glyph unicode="&#xc7;" horiz-adv-x="685" d="M397 -9Q291 -9 216 35T100 160T60 353Q60 464 100 545T215 670T397 714Q473 714 532 692T635 626L601 551Q553 593 507 611T399 630Q282 630 220 558T158 353Q158 220 220 148T399 75Q460 75 506 93T601 154L635
80Q591 37 532 14T397 -9ZM395 -193Q368 -193 344 -188T302 -173L316 -126Q335 -135 351 -139T390 -143Q417 -143 432 -134T448 -107Q448 -81 410 -81Q399 -81 389 -82T364 -88L347 -72L361 20H416L403 -56L377 -48Q388 -45 400 -43T423 -41Q460 -41 484 -59T508
-110Q508 -147 477 -170T395 -193Z" />
<glyph unicode="&#xc8;" horiz-adv-x="590" d="M86 0V705H542V629H176V396H519V320H176V76H542V0H86ZM295 765L145 937H245L363 765H295Z" />
<glyph unicode="&#xc9;" horiz-adv-x="590" d="M86 0V705H542V629H176V396H519V320H176V76H542V0H86ZM295 765L413 937H513L363 765H295Z" />
<glyph unicode="&#xca;" horiz-adv-x="590" d="M86 0V705H542V629H176V396H519V320H176V76H542V0H86ZM165 765L287 937H371L493 765H427L329 880L231 765H165Z" />
<glyph unicode="&#xcb;" horiz-adv-x="590" d="M86 0V705H542V629H176V396H519V320H176V76H542V0H86ZM371 802V895H464V802H371ZM194 802V895H287V802H194Z" />
<glyph unicode="&#xcc;" horiz-adv-x="264" d="M86 0V705H179V0H86ZM98 765L-52 937H48L166 765H98Z" />
<glyph unicode="&#xcd;" horiz-adv-x="264" d="M86 0V705H179V0H86ZM98 765L216 937H316L166 765H98Z" />
<glyph unicode="&#xce;" horiz-adv-x="264" d="M86 0V705H179V0H86ZM-32 765L90 937H174L296 765H230L132 880L34 765H-32Z" />
<glyph unicode="&#xcf;" horiz-adv-x="264" d="M86 0V705H179V0H86ZM174 802V895H267V802H174ZM-3 802V895H90V802H-3Z" />
<glyph unicode="&#xd0;" horiz-adv-x="750" d="M86 0V705H325Q443 705 524 664T648 545T690 353Q690 240 648 161T525 41T325 0H86ZM179 79H318Q459 79 527 147T595 353Q595 491 527 558T318 626H179V79ZM0 322V393H376V322H0Z" />
<glyph unicode="&#xd1;" horiz-adv-x="748" d="M86 0V705H158L600 121H576V705H663V0H592L150 584H173V0H86ZM214 780L164 783Q170 849 203 884T287 920Q310 920 333 911T390 880Q420 862 437 855T468 847Q497 847 514 866T538 923L588 920Q582 855 549 819T466
783Q443 783 419 793T359 825Q331 844 315 850T284 857Q255 857 238 838T214 780Z" />
<glyph unicode="&#xd2;" horiz-adv-x="776" d="M60 353Q60 464 99 545T211 670T387 714Q488 714 561 670T675 545T715 354Q715 243 675 162T562 36T387 -9Q285 -9 212 35T100 161T60 353ZM158 353Q158 221 216 147T387 73Q496 73 556 146T617 353Q617 486 557
559T387 632Q274 632 216 559T158 353ZM353 765L203 937H303L421 765H353Z" />
<glyph unicode="&#xd3;" horiz-adv-x="776" d="M60 353Q60 464 99 545T211 670T387 714Q488 714 561 670T675 545T715 354Q715 243 675 162T562 36T387 -9Q285 -9 212 35T100 161T60 353ZM158 353Q158 221 216 147T387 73Q496 73 556 146T617 353Q617 486 557
559T387 632Q274 632 216 559T158 353ZM353 765L471 937H571L421 765H353Z" />
<glyph unicode="&#xd4;" horiz-adv-x="776" d="M60 353Q60 464 99 545T211 670T387 714Q488 714 561 670T675 545T715 354Q715 243 675 162T562 36T387 -9Q285 -9 212 35T100 161T60 353ZM158 353Q158 221 216 147T387 73Q496 73 556 146T617 353Q617 486 557
559T387 632Q274 632 216 559T158 353ZM223 765L345 937H429L551 765H485L387 880L289 765H223Z" />
<glyph unicode="&#xd5;" horiz-adv-x="776" d="M60 353Q60 464 99 545T211 670T387 714Q488 714 561 670T675 545T715 354Q715 243 675 162T562 36T387 -9Q285 -9 212 35T100 161T60 353ZM158 353Q158 221 216 147T387 73Q496 73 556 146T617 353Q617 486 557
559T387 632Q274 632 216 559T158 353ZM225 780L175 783Q181 849 214 884T298 920Q321 920 344 911T401 880Q431 862 448 855T479 847Q508 847 525 866T549 923L599 920Q593 855 560 819T477 783Q454 783 430 793T370 825Q342 844 326 850T295 857Q266 857 249
838T225 780Z" />
<glyph unicode="&#xd6;" horiz-adv-x="776" d="M60 353Q60 464 99 545T211 670T387 714Q488 714 561 670T675 545T715 354Q715 243 675 162T562 36T387 -9Q285 -9 212 35T100 161T60 353ZM158 353Q158 221 216 147T387 73Q496 73 556 146T617 353Q617 486 557
559T387 632Q274 632 216 559T158 353ZM429 802V895H522V802H429ZM252 802V895H345V802H252Z" />
<glyph unicode="&#xd7;" horiz-adv-x="600" d="M114 50L66 98L252 285L66 472L114 520L300 333L487 520L535 472L348 285L535 98L487 50L300 237L114 50Z" />
<glyph unicode="&#xd8;" horiz-adv-x="776" d="M60 353Q60 464 99 545T211 670T387 714Q488 714 561 670T675 545T715 354Q715 243 675 162T562 36T387 -9Q285 -9 212 35T100 161T60 353ZM158 353Q158 221 216 147T387 73Q496 73 556 146T617 353Q617 486 557
559T387 632Q274 632 216 559T158 353ZM254 47L198 -50L136 -13L192 83L221 124L510 618L527 659L583 755L646 718L590 622L560 581L272 87L254 47Z" />
<glyph unicode="&#xd9;" horiz-adv-x="733" d="M367 -9Q222 -9 152 64T81 281V705H175V284Q175 179 221 126T367 73Q463 73 511 126T560 284V705H652V281Q652 138 580 65T367 -9ZM333 765L183 937H283L401 765H333Z" />
<glyph unicode="&#xda;" horiz-adv-x="733" d="M367 -9Q222 -9 152 64T81 281V705H175V284Q175 179 221 126T367 73Q463 73 511 126T560 284V705H652V281Q652 138 580 65T367 -9ZM333 765L451 937H551L401 765H333Z" />
<glyph unicode="&#xdb;" horiz-adv-x="733" d="M367 -9Q222 -9 152 64T81 281V705H175V284Q175 179 221 126T367 73Q463 73 511 126T560 284V705H652V281Q652 138 580 65T367 -9ZM203 765L325 937H409L531 765H465L367 880L269 765H203Z" />
<glyph unicode="&#xdc;" horiz-adv-x="733" d="M367 -9Q222 -9 152 64T81 281V705H175V284Q175 179 221 126T367 73Q463 73 511 126T560 284V705H652V281Q652 138 580 65T367 -9ZM409 802V895H502V802H409ZM232 802V895H325V802H232Z" />
<glyph unicode="&#xdd;" horiz-adv-x="612" d="M259 0V330L279 269L-15 705H93L319 361H296L522 705H627L333 269L352 330V0H259ZM272 765L390 937H490L340 765H272Z" />
<glyph unicode="&#xde;" horiz-adv-x="655" d="M86 0V705H179V573H376Q488 573 549 519T611 369Q611 275 550 220T376 165H179V0H86ZM179 241H370Q443 241 481 274T519 369Q519 430 481 463T370 497H179V241Z" />
<glyph unicode="&#xdf;" horiz-adv-x="643" d="M76 0V489Q76 613 137 677T322 742Q386 742 431 722T502 663T527 571Q527 506 490 454T354 363V380Q445 356 502 325T586 253T613 160Q613 108 589 70T519 12T413 -9Q374 -9 341 -2T281 18T230 52L257 115Q295 87
332 74T413 61Q466 61 495 86T524 157Q524 192 503 222T430 278T281 329V401Q342 424 377 449T426 504T441 569Q441 616 410 643T322 671Q242 671 205 629T167 499V0H76Z" />
<glyph unicode="&#xe0;" horiz-adv-x="605" d="M268 -9Q202 -9 152 22T74 112T46 252Q46 333 74 391T152 481T268 512Q335 512 384 479T450 387H438L449 503H537Q534 473 532 443T529 384V0H438V115H449Q433 58 384 25T268 -9ZM289 63Q357 63 398 111T439 252Q439
345 398 392T289 439Q221 439 180 392T138 252Q138 159 179 111T289 63ZM265 552L131 754H226L329 552H265Z" />
<glyph unicode="&#xe1;" horiz-adv-x="605" d="M268 -9Q202 -9 152 22T74 112T46 252Q46 333 74 391T152 481T268 512Q335 512 384 479T450 387H438L449 503H537Q534 473 532 443T529 384V0H438V115H449Q433 58 384 25T268 -9ZM289 63Q357 63 398 111T439 252Q439
345 398 392T289 439Q221 439 180 392T138 252Q138 159 179 111T289 63ZM265 552L368 754H463L329 552H265Z" />
<glyph unicode="&#xe2;" horiz-adv-x="605" d="M268 -9Q202 -9 152 22T74 112T46 252Q46 333 74 391T152 481T268 512Q335 512 384 479T450 387H438L449 503H537Q534 473 532 443T529 384V0H438V115H449Q433 58 384 25T268 -9ZM289 63Q357 63 398 111T439 252Q439
345 398 392T289 439Q221 439 180 392T138 252Q138 159 179 111T289 63ZM145 552L255 754H339L449 552H388L297 696L206 552H145Z" />
<glyph unicode="&#xe3;" horiz-adv-x="605" d="M268 -9Q202 -9 152 22T74 112T46 252Q46 333 74 391T152 481T268 512Q335 512 384 479T450 387H438L449 503H537Q534 473 532 443T529 384V0H438V115H449Q433 58 384 25T268 -9ZM289 63Q357 63 398 111T439 252Q439
345 398 392T289 439Q221 439 180 392T138 252Q138 159 179 111T289 63ZM163 589L114 592Q119 657 149 693T224 729Q245 729 264 719T307 688Q328 670 341 663T368 655Q419 655 431 732L480 729Q476 663 446 628T371 592Q350 592 331 602T286 633Q266 651 253 658T226
665Q199 665 184 645T163 589Z" />
<glyph unicode="&#xe4;" horiz-adv-x="605" d="M268 -9Q202 -9 152 22T74 112T46 252Q46 333 74 391T152 481T268 512Q335 512 384 479T450 387H438L449 503H537Q534 473 532 443T529 384V0H438V115H449Q433 58 384 25T268 -9ZM289 63Q357 63 398 111T439 252Q439
345 398 392T289 439Q221 439 180 392T138 252Q138 159 179 111T289 63ZM339 606V699H432V606H339ZM162 606V699H255V606H162Z" />
<glyph unicode="&#xe5;" horiz-adv-x="605" d="M268 -9Q202 -9 152 22T74 112T46 252Q46 333 74 391T152 481T268 512Q335 512 384 479T450 387H438L449 503H537Q534 473 532 443T529 384V0H438V115H449Q433 58 384 25T268 -9ZM289 63Q357 63 398 111T439 252Q439
345 398 392T289 439Q221 439 180 392T138 252Q138 159 179 111T289 63ZM297 546Q264 546 237 562T193 604T177 664Q177 697 193 723T236 765T297 781Q331 781 358 765T401 723T417 663Q417 631 401 605T359 562T297 546ZM297 593Q328 593 347 613T367 663Q367
694 348 714T297 734Q267 734 247 714T227 664Q227 633 246 613T297 593Z" />
<glyph unicode="&#xe6;" horiz-adv-x="879" d="M239 -9Q185 -9 144 12T79 68T56 146Q56 204 82 237T173 285T347 299H397V245H347Q267 245 223 237T160 208T141 150Q141 110 170 84T250 58Q290 58 321 76T370 127T388 205V326Q388 386 360 413T275 440Q229 440
189 428T107 389L77 455Q116 482 169 497T277 512Q354 512 397 482T456 391H430Q460 450 509 481T625 512Q723 512 779 449T836 273V244H463V299H774L757 284Q757 360 723 403T624 446Q555 446 515 401T475 268V261Q475 166 517 115T642 63Q685 63 724 76T799 120L829
57Q795 25 744 8T640 -9Q551 -9 494 30T412 145H435Q419 72 367 32T239 -9Z" />
<glyph unicode="&#xe7;" horiz-adv-x="497" d="M292 -9Q217 -9 162 22T77 113T46 255Q46 336 77 393T163 481T292 512Q341 512 387 496T462 448L431 384Q402 412 367 425T298 439Q224 439 182 392T140 254Q140 163 182 114T298 65Q331 65 366 78T431 119L462 56Q432
24 386 8T292 -9ZM291 -193Q264 -193 240 -188T198 -173L212 -126Q231 -135 247 -139T286 -143Q313 -143 328 -134T344 -107Q344 -81 306 -81Q295 -81 285 -82T260 -88L243 -72L257 20H312L299 -56L273 -48Q284 -45 296 -43T319 -41Q356 -41 380 -59T404 -110Q404
-147 373 -170T291 -193Z" />
<glyph unicode="&#xe8;" horiz-adv-x="545" d="M305 -9Q185 -9 116 60T46 250Q46 330 76 388T161 479T287 512Q356 512 404 483T477 399T502 271V241H117V295H440L423 282Q423 360 389 403T287 446Q214 446 174 396T134 258V249Q134 157 179 110T306 63Q351 63
390 76T465 119L495 56Q461 25 411 8T305 -9ZM255 552L121 754H216L319 552H255Z" />
<glyph unicode="&#xe9;" horiz-adv-x="545" d="M305 -9Q185 -9 116 60T46 250Q46 330 76 388T161 479T287 512Q356 512 404 483T477 399T502 271V241H117V295H440L423 282Q423 360 389 403T287 446Q214 446 174 396T134 258V249Q134 157 179 110T306 63Q351 63
390 76T465 119L495 56Q461 25 411 8T305 -9ZM255 552L358 754H453L319 552H255Z" />
<glyph unicode="&#xea;" horiz-adv-x="545" d="M305 -9Q185 -9 116 60T46 250Q46 330 76 388T161 479T287 512Q356 512 404 483T477 399T502 271V241H117V295H440L423 282Q423 360 389 403T287 446Q214 446 174 396T134 258V249Q134 157 179 110T306 63Q351 63
390 76T465 119L495 56Q461 25 411 8T305 -9ZM135 552L245 754H329L439 552H378L287 696L196 552H135Z" />
<glyph unicode="&#xeb;" horiz-adv-x="545" d="M305 -9Q185 -9 116 60T46 250Q46 330 76 388T161 479T287 512Q356 512 404 483T477 399T502 271V241H117V295H440L423 282Q423 360 389 403T287 446Q214 446 174 396T134 258V249Q134 157 179 110T306 63Q351 63
390 76T465 119L495 56Q461 25 411 8T305 -9ZM329 606V699H422V606H329ZM152 606V699H245V606H152Z" />
<glyph unicode="&#xec;" horiz-adv-x="243" d="M76 0V503H167V0H76ZM90 552L-44 754H51L154 552H90Z" />
<glyph unicode="&#xed;" horiz-adv-x="243" d="M76 0V503H167V0H76ZM90 552L193 754H288L154 552H90Z" />
<glyph unicode="&#xee;" horiz-adv-x="243" d="M76 0V503H167V0H76ZM-30 552L80 754H164L274 552H213L122 696L31 552H-30Z" />
<glyph unicode="&#xef;" horiz-adv-x="243" d="M76 0V503H167V0H76ZM164 606V699H257V606H164ZM-13 606V699H80V606H-13Z" />
<glyph unicode="&#xf0;" d="M287 -9Q215 -9 161 20T76 102T46 225Q46 295 75 347T158 429T282 458Q356 458 404 421T473 308H449Q449 393 415 470T313 601L334 598L137 514L116 561L286 633L284 620Q254 642 219 657T142 683L160 743Q221 731 272 709T363 656L343
659L461 709L482 662L383 620L387 637Q438 592 470 536T519 415T535 281Q535 188 506 123T422 25T287 -9ZM288 64Q358 64 398 107T439 225Q439 300 399 342T289 385Q219 385 179 343T138 225Q138 149 178 107T288 64Z" />
<glyph unicode="&#xf1;" horiz-adv-x="589" d="M76 0V384Q76 413 74 443T68 503H156L166 395H154Q177 452 225 482T337 512Q426 512 471 464T516 313V0H425V308Q425 377 398 407T314 438Q246 438 207 397T167 286V0H76ZM161 589L112 592Q117 657 147 693T222 729Q243
729 262 719T305 688Q326 670 339 663T366 655Q417 655 429 732L478 729Q474 663 444 628T369 592Q348 592 329 602T284 633Q264 651 251 658T224 665Q197 665 182 645T161 589Z" />
<glyph unicode="&#xf2;" horiz-adv-x="576" d="M288 -9Q214 -9 160 22T76 112T46 252Q46 332 76 390T160 480T288 512Q362 512 416 481T500 391T530 252Q530 171 501 113T417 23T288 -9ZM288 63Q356 63 397 111T438 252Q438 345 397 392T288 439Q219 439 179 392T138
252Q138 159 178 111T288 63ZM257 552L123 754H218L321 552H257Z" />
<glyph unicode="&#xf3;" horiz-adv-x="576" d="M288 -9Q214 -9 160 22T76 112T46 252Q46 332 76 390T160 480T288 512Q362 512 416 481T500 391T530 252Q530 171 501 113T417 23T288 -9ZM288 63Q356 63 397 111T438 252Q438 345 397 392T288 439Q219 439 179 392T138
252Q138 159 178 111T288 63ZM257 552L360 754H455L321 552H257Z" />
<glyph unicode="&#xf4;" horiz-adv-x="576" d="M288 -9Q214 -9 160 22T76 112T46 252Q46 332 76 390T160 480T288 512Q362 512 416 481T500 391T530 252Q530 171 501 113T417 23T288 -9ZM288 63Q356 63 397 111T438 252Q438 345 397 392T288 439Q219 439 179 392T138
252Q138 159 178 111T288 63ZM137 552L247 754H331L441 552H380L289 696L198 552H137Z" />
<glyph unicode="&#xf5;" horiz-adv-x="576" d="M288 -9Q214 -9 160 22T76 112T46 252Q46 332 76 390T160 480T288 512Q362 512 416 481T500 391T530 252Q530 171 501 113T417 23T288 -9ZM288 63Q356 63 397 111T438 252Q438 345 397 392T288 439Q219 439 179 392T138
252Q138 159 178 111T288 63ZM155 589L106 592Q111 657 141 693T216 729Q237 729 256 719T299 688Q320 670 333 663T360 655Q411 655 423 732L472 729Q468 663 438 628T363 592Q342 592 323 602T278 633Q258 651 245 658T218 665Q191 665 176 645T155 589Z" />
<glyph unicode="&#xf6;" horiz-adv-x="576" d="M288 -9Q214 -9 160 22T76 112T46 252Q46 332 76 390T160 480T288 512Q362 512 416 481T500 391T530 252Q530 171 501 113T417 23T288 -9ZM288 63Q356 63 397 111T438 252Q438 345 397 392T288 439Q219 439 179 392T138
252Q138 159 178 111T288 63ZM331 606V699H424V606H331ZM154 606V699H247V606H154Z" />
<glyph unicode="&#xf7;" horiz-adv-x="600" d="M53 253V321H547V253H53ZM250 43V133H340V43H250ZM250 440V530H340V440H250Z" />
<glyph unicode="&#xf8;" horiz-adv-x="576" d="M288 -9Q214 -9 160 22T76 112T46 252Q46 332 76 390T160 480T288 512Q362 512 416 481T500 391T530 252Q530 171 501 113T417 23T288 -9ZM288 63Q361 63 402 112T444 252Q444 343 403 391T288 439Q215 439 174 391T132
252Q132 161 173 112T288 63ZM150 -42L103 -13L427 545L475 516L150 -42Z" />
<glyph unicode="&#xf9;" horiz-adv-x="582" d="M255 -9Q164 -9 119 40T73 191V503H164V193Q164 127 191 96T275 65Q337 65 375 106T414 217V503H505V0H417V111H430Q409 54 363 23T255 -9ZM259 553L125 755H220L323 553H259Z" />
<glyph unicode="&#xfa;" horiz-adv-x="582" d="M255 -9Q164 -9 119 40T73 191V503H164V193Q164 127 191 96T275 65Q337 65 375 106T414 217V503H505V0H417V111H430Q409 54 363 23T255 -9ZM259 553L362 755H457L323 553H259Z" />
<glyph unicode="&#xfb;" horiz-adv-x="582" d="M255 -9Q164 -9 119 40T73 191V503H164V193Q164 127 191 96T275 65Q337 65 375 106T414 217V503H505V0H417V111H430Q409 54 363 23T255 -9ZM139 553L249 755H333L443 553H382L291 697L200 553H139Z" />
<glyph unicode="&#xfc;" horiz-adv-x="582" d="M255 -9Q164 -9 119 40T73 191V503H164V193Q164 127 191 96T275 65Q337 65 375 106T414 217V503H505V0H417V111H430Q409 54 363 23T255 -9ZM333 607V700H426V607H333ZM156 607V700H249V607H156Z" />
<glyph unicode="&#xfd;" horiz-adv-x="534" d="M59 -227L38 -153Q85 -142 116 -128T168 -90T205 -32L230 28L228 -10L9 503H107L282 72H256L431 503H525L294 -39Q273 -88 249 -121T196 -175T133 -208T59 -227ZM234 552L337 754H432L298 552H234Z" />
<glyph unicode="&#xfe;" horiz-adv-x="605" d="M76 -216V736H167V387H156Q171 445 220 478T337 512Q404 512 454 481T531 392T559 252Q559 171 532 112T455 22T338 -9Q270 -9 222 24T156 115H167V-216H76ZM317 63Q385 63 426 111T467 252Q467 345 426 392T317
439Q248 439 207 392T166 252Q166 159 207 111T317 63Z" />
<glyph unicode="&#xff;" horiz-adv-x="534" d="M59 -227L38 -153Q85 -142 116 -128T168 -90T205 -32L230 28L228 -10L9 503H107L282 72H256L431 503H525L294 -39Q273 -88 249 -121T196 -175T133 -208T59 -227ZM308 606V699H401V606H308ZM131 606V699H224V606H131Z" />
<glyph unicode="&#x2013;" horiz-adv-x="505" d="M0 246V304H505V246H0Z" />
<glyph unicode="&#x2014;" horiz-adv-x="1010" d="M0 246V304H1010V246H0Z" />
<glyph unicode="&#x2018;" horiz-adv-x="233" d="M61 482V558Q61 601 75 638T126 712L167 679Q139 650 129 626T119 574L94 593H172V482H61Z" />
<glyph unicode="&#x2019;" horiz-adv-x="233" d="M108 476L67 508Q95 537 105 562T115 614L141 595H62V705H173V629Q173 586 159 549T108 476Z" />
<glyph unicode="&#x201a;" horiz-adv-x="233" d="M108 -119L67 -87Q93 -60 104 -36T115 20L141 0H62V111H173V34Q173 -12 158 -48T108 -119Z" />
<glyph unicode="&#x201c;" horiz-adv-x="408" d="M61 482V558Q61 601 75 638T126 712L167 679Q139 650 129 626T119 574L94 593H172V482H61ZM236 482V558Q236 601 250 638T301 712L342 679Q314 650 304 626T294 574L269 593H347V482H236Z" />
<glyph unicode="&#x201d;" horiz-adv-x="408" d="M108 476L67 508Q95 537 105 562T115 614L141 595H62V705H173V629Q173 586 159 549T108 476ZM283 476L242 508Q270 537 280 562T290 614L316 595H237V705H348V629Q348 586 334 549T283 476Z" />
<glyph unicode="&#x201e;" horiz-adv-x="408" d="M108 -119L67 -87Q93 -60 104 -36T115 20L141 0H62V111H173V34Q173 -12 158 -48T108 -119ZM283 -119L242 -87Q268 -60 279 -36T290 20L316 0H237V111H348V34Q348 -12 333 -48T283 -119Z" />
<glyph unicode="&#x2022;" horiz-adv-x="529" d="M265 89Q216 89 174 112T107 177T82 268Q82 314 105 355T170 421T265 447Q314 447 355 424T421 360T447 268Q447 219 423 178T357 113T265 89Z" />
<glyph unicode="&#x2039;" horiz-adv-x="269" d="M155 87L26 268L155 449H233L114 268L233 87H155Z" />
<glyph unicode="&#x203a;" horiz-adv-x="269" d="M114 87H36L155 268L36 449H115L243 268L114 87Z" />
</font>
</defs>
</svg>
